<svg xmlns="http://www.w3.org/2000/svg">
<defs>
<font font-weight="400" font-style="normal" font-variant="normal" id="FontID1" vert-origin-x="45" vert-origin-y="90" vert-adv-y="90" style="font-style:normal;font-variant:normal;font-weight:400">
      <glyph id="glyph4247" unicode="D">
        <path id="path4249" d="M76.9967 0l0 716.002 246.687 0c55.6658,0 98.1504,-3.33073 127.489,-10.1694 40.9964,-9.49614 76.0045,-26.6813 104.989,-51.3429 37.8428,-31.9963 66.0123,-72.6384 84.6857,-122.316 18.8151,-49.6776 28.1695,-106.513 28.1695,-170.328 0,-54.3548 -6.34257,-102.509 -19.0277,-144.497 -12.6497,-42.024 -28.9845,-76.8549 -48.8272,-104.351 -19.9844,-27.4963 -41.6696,-49.1461 -65.3391,-64.843 -23.4923,-15.8033 -51.9807,-27.8152 -85.3235,-36.0003 -33.4845,-8.14967 -71.8234,-12.1536 -115.158,-12.1536l-258.345 0zm94.9968 84.0125l152.682 0c47.1618,0 84.1542,4.32287 110.977,13.1458 26.8585,8.85834 48.1894,21.1891 64.1698,37.1696 22.3584,22.5002 39.8271,52.8311 52.3351,90.8511 12.508,37.9846 18.8505,83.977 18.8505,138.155 0,75.0124 -12.3308,132.662 -36.8507,172.986 -24.4844,40.3586 -54.3193,67.3588 -89.5046,81.0006 -25.3348,9.85047 -66.1541,14.6694 -122.493,14.6694l-150.167 0 0 -547.977z"></path>
      </glyph>
      <glyph id="glyph4251" unicode="U">
        <path id="path4253" d="M545.992 716.002l94.9968 0 0 -413.507c0,-72.0006 -8.14967,-129.155 -24.3073,-171.497 -16.3348,-42.1657 -45.6736,-76.6778 -88.0164,-103.146 -42.4846,-26.5041 -98.0086,-39.8625 -166.997,-39.8625 -66.8273,0 -121.678,11.5158 -164.163,34.6892 -42.6618,23.1734 -72.9927,56.4808 -91.17,100.312 -18.1773,43.8311 -27.3191,103.678 -27.3191,179.505l0 413.507 94.9968 0 0 -413.33c0,-62.1855 5.81107,-108.178 17.3269,-137.517 11.4804,-29.4805 31.1459,-52.3351 59.3154,-68.1383 28.0278,-16.0159 62.3273,-24.0238 102.828,-24.0238 69.3431,0 118.843,15.8387 148.359,47.339 29.4805,31.6774 44.15,92.3393 44.15,182.34l0 413.33z"></path>
      </glyph>
      <glyph id="glyph4255" unicode="Γ">
        <path id="path4257" d="M79.0189 716.012l448.994 0 0 -84.0191 -354.03 0 0 -631.993 -94.9644 0 0 716.012z"></path>
      </glyph>
      <glyph id="glyph4259" unicode="0">
        <path id="path4261" d="M41.9911 353.334c0,84.4924 8.67413,152.827 26.0035,204.494 17.4994,51.8369 43.3328,91.6736 77.6703,119.51 34.1674,27.8366 77.3301,41.6698 129.337,41.6698 38.3249,0 72.0009,-7.67254 101.16,-23.1688 29.0082,-15.4963 53.0085,-37.8335 71.6796,-67.0119 18.6522,-28.9893 33.317,-64.4985 43.9943,-106.319 10.8285,-41.8399 16.1577,-98.3445 16.1577,-169.174 0,-84.0011 -8.65523,-151.996 -25.8334,-203.662 -17.1593,-51.8369 -42.9927,-91.6736 -77.3301,-119.68 -34.1674,-27.9878 -77.5002,-41.9911 -129.828,-41.9911 -68.8261,0 -123.006,24.4916 -162.333,73.6639 -47.1691,60.0008 -70.6781,157.174 -70.6781,291.67zm90.0106 -0.340162c0,-117.828 13.6632,-196.16 41.1596,-234.825 27.4964,-38.8351 61.5126,-58.1677 101.841,-58.1677 40.3281,0 74.3253,19.5026 101.841,58.3377 27.4964,38.9863 41.1596,117.167 41.1596,234.655 0,117.847 -13.6632,196.179 -41.1596,234.844 -27.3452,38.8351 -61.6827,58.1677 -102.842,58.1677 -40.3281,0 -72.6623,-17.1782 -96.8327,-51.3455 -30.161,-43.484 -45.1659,-124.159 -45.1659,-241.666z"></path>
      </glyph>
      <glyph id="glyph4263" unicode="t">
        <path id="path4265" d="M256.998 78.4849l12.0119 -77.6345c-24.6616,-5.17327 -46.8429,-7.8662 -66.1895,-7.8662 -31.8191,0 -56.4808,5.03154 -74.162,15.1655 -17.5041,10.1694 -29.8349,23.3506 -36.9924,39.8625 -7.15754,16.4765 -10.6654,51.1658 -10.6654,103.997l0 298.987 -64.9848 0 0 67.9966 64.9848 0 0 128.34 88.0164 52.8311 0 -181.171 87.981 0 0 -67.9966 -87.981 0 0 -303.983c0,-25.1931 1.4882,-41.3507 4.64177,-48.5083 3.01183,-7.15754 8.00794,-12.8269 15.0237,-17.1852 6.98037,-4.1457 16.9726,-6.30714 29.9766,-6.30714 9.6733,0 22.5002,1.1693 38.3389,3.47247z"></path>
      </glyph>
      <glyph id="glyph4267" unicode="c">
        <path id="path4269" d="M405.003 189.994l85.9967 -11.9765c-9.49614,-59.1737 -33.4845,-105.343 -72.3195,-138.863 -38.835,-33.4845 -86.67,-50.1382 -143.186,-50.1382 -70.8313,0 -127.844,23.138 -170.824,69.4848 -43.1578,46.3468 -64.6659,112.678 -64.6659,198.994 0,56.0201 9.31897,104.847 27.8152,146.836 18.4962,41.8468 46.6657,73.347 84.6857,94.1818 37.8428,20.9765 78.9809,31.5002 123.662,31.5002 56.1619,0 102.332,-14.1733 138.013,-42.6618 35.8231,-28.5238 58.8194,-69.0242 68.8116,-121.359l-85.0046 -13.004c-8.14967,34.831 -22.5002,61.0162 -43.335,78.662 -20.6576,17.5041 -45.6382,26.3624 -74.977,26.3624 -44.3271,0 -80.3274,-15.8387 -108.178,-47.5161 -27.6734,-31.8191 -41.4925,-81.8156 -41.4925,-150.485 0,-69.662 13.3229,-120.19 40.0043,-151.69 26.823,-31.5002 61.654,-47.3035 104.493,-47.3035 34.6538,0 63.4966,10.4883 86.4928,31.642 23.1734,21.012 37.8428,53.5044 44.0082,97.3354z"></path>
      </glyph>
      <glyph id="glyph4271" unicode="R">
        <path id="path4273" d="M79.0164 0l0 716.002 317.306 0c63.8509,0 112.359,-6.4843 145.525,-19.3466 33.1656,-12.8269 59.6698,-35.5042 79.477,-67.9966 19.8427,-32.4924 29.6931,-68.4927 29.6931,-107.824 0,-50.8469 -16.5119,-93.6858 -49.3587,-128.517 -32.8113,-34.831 -83.481,-56.8351 -152.151,-66.3312 25.1577,-11.9765 44.15,-23.9884 57.154,-35.6459 27.6734,-25.3348 53.8233,-57.1894 78.3431,-95.3511l123.84 -194.99 -118.347 0 -94.6779 148.997c-27.4963,43.1578 -50.3154,76.0045 -68.1383,98.8236 -18.0001,22.8545 -34.016,38.6932 -48.1894,47.835 -13.9962,9.00007 -28.4884,15.3426 -43.1578,19.0277 -10.6654,2.16143 -28.1695,3.33073 -52.654,3.33073l-109.666 0 0 -318.014 -94.9968 0zm94.9968 400.007l203.317 0c43.335,0 76.9967,4.50004 101.339,13.5001 24.3427,8.8229 42.8389,23.1734 55.3469,42.9807 12.6497,19.6655 18.9923,40.9964 18.9923,64.1698 0,33.8388 -12.1891,61.8312 -36.6735,83.6581 -24.4844,21.8624 -63.1777,32.6695 -116.009,32.6695l-226.313 0 0 -236.978z"></path>
      </glyph>
      <glyph id="glyph4275" unicode="A">
        <path id="path4277" d="M-1.4882 0l274.644 716.002 104.174 0 291.51 -716.002 -107.824 0 -82.8432 216.994 -301.502 0 -77.6699 -216.994 -100.489 0zm205.974 293.991l244.029 0 -74.6935 198.498c-22.5002,60.343 -39.4728,110.162 -51.3075,149.529 -9.85047,-46.7012 -23.0317,-92.5165 -39.5082,-137.836l-78.5203 -210.191z"></path>
      </glyph>
      <glyph id="glyph4279" unicode="-">
        <path id="path4281" d="M30.9855 215.008l0 87.9956 272.019 0 0 -87.9956 -272.019 0z"></path>
      </glyph>
      <glyph id="glyph4283" unicode="O">
        <path id="path4285" d="M48.0122 348.487c0,118.666 31.9963,211.679 95.8118,278.86 63.8509,67.1462 146.163,100.666 247.183,100.666 66.1541,0 125.647,-15.8387 178.832,-47.339 53.0083,-31.5002 93.5086,-75.5085 121.324,-132.025 27.8506,-56.3036 41.8468,-120.332 41.8468,-191.801 0,-72.5321 -14.6694,-137.517 -44.0082,-194.671 -29.3388,-57.3312 -70.8313,-100.666 -124.513,-130.005 -53.8233,-29.516 -111.828,-44.1854 -173.978,-44.1854 -67.5005,0 -127.666,16.3348 -180.852,48.8626 -53.0083,32.4924 -93.3314,76.8195 -120.651,133.159 -27.3545,56.1619 -40.9964,115.654 -40.9964,178.478zm97.9732 -1.66537c0,-86.1385 23.1734,-153.993 69.5202,-203.494 46.3114,-49.5004 104.493,-74.3392 174.509,-74.3392 71.3273,0 129.828,25.0159 175.997,75.0124 45.9925,49.9965 68.9887,121.005 68.9887,212.99 0,58.1816 -9.85047,108.993 -29.516,152.328 -19.6655,43.335 -48.4728,76.9967 -86.3156,100.843 -38.02,23.8466 -80.5046,35.8231 -127.666,35.8231 -67.0045,0 -124.655,-22.9962 -172.986,-68.9887 -48.3665,-45.9925 -72.5321,-122.67 -72.5321,-230.175z"></path>
      </glyph>
      <glyph id="glyph4287" unicode="L">
        <path id="path4289" d="M72.9927 0l0 716.002 94.9968 0 0 -631.989 351.995 0 0 -84.0125 -446.992 0z"></path>
      </glyph>
      <glyph id="glyph4291" unicode="k">
        <path id="path4293" d="M66.3309 0l0 715.99 88.0051 0 0 -407.819 207.998 210.833 113.67 0 -198.011 -192.844 218.007 -326.159 -108.327 0 -172.347 265.171 -60.9886 -59.3315 0 -205.839 -88.0051 0z"></path>
      </glyph>
      <glyph id="glyph4295" unicode="I">
        <path id="path4297" d="M93.0125 0l0 716.002 94.9968 0 0 -716.002 -94.9968 0z"></path>
      </glyph>
      <glyph id="glyph4299" unicode="h">
        <path id="path4301" d="M66.0038 0l0 715.99 88.0051 0 0 -257.648c40.819,47.8184 92.3225,71.6513 154.663,71.6513 38.1588,0 71.3242,-7.50093 99.6707,-22.6554 28.1503,-15.1763 48.3199,-36.0001 60.4871,-62.6676 12.1672,-26.6675 18.1636,-65.5023 18.1636,-116.177l0 -328.493 -87.9833 0 0 328.166c0,43.8281 -9.50699,75.8379 -28.3465,95.8331 -18.9922,19.9952 -45.6597,30.0037 -80.3297,30.0037 -25.8389,0 -50.1733,-6.67234 -73.0032,-20.1696 -22.8299,-13.4973 -38.9874,-31.8353 -48.8214,-54.9923 -9.68143,-23.0043 -14.5003,-54.8396 -14.5003,-95.506l0 -283.334 -88.0051 0z"></path>
      </glyph>
      <glyph id="glyph4303" unicode="y">
        <path id="path4305" d="M62.0084 -199.49l-9.9922 81.3195c19.3112,-5.17327 36.0003,-7.83077 50.3154,-7.83077 19.6655,0 35.327,3.33073 46.9846,9.85047 11.8347,6.4843 21.508,15.6615 29.0199,27.3191 5.49217,8.8229 14.4922,30.6498 26.823,65.658 1.66537,4.85437 4.18114,12.0119 7.83077,21.508l-196.974 520.658 93.9692 0 108.355 -299.66c14.1733,-37.8428 26.6459,-77.8471 37.8428,-119.836 10.1339,39.5082 22.1458,78.5203 36.142,116.824l110.658 302.672 87.8393 0 -196.159 -527.992c-21.1537,-56.8351 -37.6657,-95.8472 -49.5004,-117.32 -15.6615,-28.8427 -33.6617,-49.9965 -53.8233,-63.4966 -20.3387,-13.5001 -44.5043,-20.197 -72.4966,-20.197 -17.008,0 -36.0003,3.5079 -56.8351,10.5237z"></path>
      </glyph>
      <glyph id="glyph4307" unicode="F">
        <path id="path4309" d="M81.9928 0l0 716.002 482.992 0 0 -84.0125 -387.995 0 0 -222.982 336.014 0 0 -84.0125 -336.014 0 0 -324.995 -94.9968 0z"></path>
      </glyph>
      <glyph id="glyph4311" unicode="2">
        <path id="path4313" d="M502.997 83.988l0 -83.988 -474.002 0c-0.647931,21.1792 2.8347,41.5081 10.3264,61.1485 12.1892,32.1941 31.6676,64.0236 58.5162,95.1648 26.8486,31.1817 65.1575,67.1823 115.008,108.002 77.4682,63.8617 130.153,114.36 157.65,151.697 27.6585,37.337 41.5081,72.6492 41.5081,105.977 0,34.8263 -12.5132,64.1856 -37.499,88.1591 -24.9858,23.8519 -57.6658,35.8387 -97.8375,35.8387 -42.48,0 -76.4963,-12.6346 -102.009,-37.9849 -25.4718,-25.1883 -38.3089,-60.1766 -38.6734,-105.005l-89.9814 8.99004c6.15534,67.3443 29.4808,118.693 69.8145,154.005 40.4957,35.3527 94.6789,53.0088 162.833,53.0088 68.6807,0 123.188,-18.9925 163.198,-57.1799 40.1717,-38.1469 60.1361,-85.4864 60.1361,-141.816 0,-28.6709 -5.83138,-56.8559 -17.6561,-84.5145 -11.6628,-27.8205 -31.1817,-56.9774 -58.3138,-87.6731 -27.3346,-30.4932 -72.5277,-72.6492 -135.499,-125.982 -52.8468,-44.3428 -86.8632,-74.35 -101.847,-90.1839 -14.9834,-15.8338 -27.3346,-31.6676 -37.175,-47.6634l351.502 0z"></path>
      </glyph>
      <glyph id="glyph4315" unicode="e">
        <path id="path4317" d="M419.991 167.99l90.9928 -11.9765c-14.1379,-52.8311 -40.6421,-94.0047 -79.3353,-123.166 -38.6578,-29.1971 -87.981,-43.8311 -148.147,-43.8311 -75.6856,0 -135.674,23.3151 -180.001,69.9809 -44.3271,46.4886 -66.5084,112.005 -66.5084,196.159 0,87.0243 22.3584,154.667 67.1816,202.679 44.8232,48.1539 103.005,72.1777 174.509,72.1777 69.1659,0 125.647,-23.5277 169.478,-70.6895 43.8311,-47.1618 65.8352,-113.493 65.8352,-198.994 0,-5.17327 -0.177167,-13.004 -0.496067,-23.3151l-386.507 0c3.33073,-56.8351 19.3466,-100.524 48.3311,-130.678 28.8427,-30.1538 65.0202,-45.3193 108.178,-45.3193 32.1735,0 59.6698,8.46857 82.3471,25.4766 22.8191,17.008 40.8192,44.1854 54.1422,81.4967zm-288.002 141.025l288.994 0c-3.8268,43.6539 -14.9883,76.3234 -33.1656,98.1504 -27.8152,33.8388 -64.1344,50.8469 -108.639,50.8469 -40.3586,0 -74.162,-13.5001 -101.694,-40.5003 -27.3191,-27.0002 -42.4846,-63.1777 -45.4964,-108.497z"></path>
      </glyph>
      <glyph id="glyph4319" unicode="C">
        <path id="path4321" d="M586.989 251.152l94.9968 -23.9884c-19.8072,-77.8471 -55.4886,-136.985 -106.973,-177.84 -51.5201,-40.8192 -114.521,-61.3351 -189.001,-61.3351 -76.9967,0 -139.678,15.6615 -188.009,47.1618 -48.3311,31.3585 -85.0046,76.8549 -110.162,136.348 -25.1577,59.6698 -37.8428,123.485 -37.8428,191.836 0,74.5163 14.1733,139.501 42.6618,194.99 28.5238,55.5241 69.0242,97.6897 121.501,126.497 52.5122,28.8427 110.339,43.1933 173.34,43.1933 71.6817,0 131.847,-18.1773 180.497,-54.6737 48.8272,-36.4964 82.8432,-87.6621 102.013,-153.674l-93.0125 -22.0041c-16.5119,52.0162 -40.6775,90.0007 -72.1777,113.67 -31.5002,23.8466 -71.1502,35.6814 -118.985,35.6814 -54.8508,0 -100.843,-13.1812 -137.659,-39.5082 -36.8507,-26.327 -62.8588,-61.8312 -77.6699,-106.158 -14.9883,-44.5043 -22.5002,-90.355 -22.5002,-137.517 0,-60.8391 8.8229,-113.989 26.5041,-159.344 17.6458,-45.4964 45.1421,-79.3353 82.4888,-101.835 37.3468,-22.5002 77.6699,-33.6617 121.182,-33.6617 52.9729,0 97.6543,15.3426 134.328,45.8508 36.6735,30.6498 61.4769,76.0045 74.4809,136.312z"></path>
      </glyph>
      <glyph id="glyph4323" unicode="T">
        <path id="path4325" d="M258.982 0l0 631.989 -235.986 0 0 84.0125 567.004 0 0 -84.0125 -235.986 0 0 -631.989 -95.0322 0z"></path>
      </glyph>
      <glyph id="glyph4327" unicode="s">
        <path id="path4329" d="M31.0042 154.985l86.9889 14.0316c4.85437,-34.8664 18.4962,-61.5123 40.8547,-80.1857 22.323,-18.4962 53.6461,-27.8152 93.6503,-27.8152 40.5003,0 70.5124,8.14967 90.1779,24.6616 19.4883,16.3348 29.3388,35.6459 29.3388,57.8272 0,19.8427 -8.85834,35.5042 -26.3624,46.8429 -12.3308,7.83077 -42.3074,17.6458 -90.0007,29.8349 -64.3115,16.1576 -108.816,30.1538 -133.832,41.9885 -24.8033,12.0119 -43.6539,28.3112 -56.4808,49.3232 -12.8269,20.8348 -19.3466,44.0082 -19.3466,69.3431 0,23.1734 5.35044,44.5043 15.8387,64.1698 10.6654,19.6655 25.0159,36.0003 43.1578,49.0043 13.6773,9.9922 32.3506,18.4962 55.843,25.4766 23.6695,7.0158 48.8272,10.5237 75.8274,10.5237 40.6775,0 76.3234,-5.8465 107.009,-17.6812 30.827,-11.6576 53.5044,-27.6734 68.1738,-47.6579 14.4922,-20.1616 24.6616,-47.0201 30.1538,-80.6817l-85.9967 -11.9765c-3.8268,27.0002 -15.1655,48.1539 -33.8388,63.3194 -18.6734,15.1655 -45.0004,22.6773 -79.1581,22.6773 -40.1814,0 -68.9887,-6.66147 -86.1739,-20.0198 -17.1497,-13.3229 -25.8309,-28.9845 -25.8309,-46.8075 0,-11.3387 3.5079,-21.6852 10.6654,-30.8624 7.15754,-9.31897 18.3545,-17.1497 33.6617,-23.3151 8.85834,-3.33073 34.5121,-10.8426 77.4927,-22.5002 62.0084,-16.5119 105.343,-30.1892 130.005,-40.6775 24.6616,-10.4883 44.0082,-26.0081 58.0044,-45.9925 14.1733,-20.1616 21.1891,-45.1775 21.1891,-75.1541 0,-29.1971 -8.504,-56.6934 -25.6892,-82.5243 -17.1497,-25.8309 -41.8114,-45.8153 -73.9848,-59.9887 -32.3506,-14.1733 -68.847,-21.1537 -109.524,-21.1537 -67.3234,0 -118.808,13.9962 -154.135,41.8114 -35.3625,27.9923 -57.8627,69.3431 -67.6777,124.158z"></path>
      </glyph>
      <glyph id="glyph4331" unicode="▒">
        <path id="path4333" d="M50.3361 910.181l60.5005 0 0 -61.027 -60.5005 0 0 61.027zm121.487 0l60.6625 0 0 -61.027 -60.6625 0 0 61.027zm121.689 0l60.9865 0 0 -61.027 -60.9865 0 0 61.027zm121.487 0l60.9865 0 0 -61.027 -60.9865 0 0 61.027zm122.175 0l60.5005 0 0 -61.027 -60.5005 0 0 61.027zm121.487 0l60.5005 0 0 -61.027 -60.5005 0 0 61.027zm-669.312 -121.689l60.9865 0 0 -60.9865 -60.9865 0 0 60.9865zm121.487 0l60.9865 0 0 -60.9865 -60.9865 0 0 60.9865zm121.649 0l61.027 0 0 -60.9865 -61.027 0 0 60.9865zm122.013 0l60.5005 0 0 -60.9865 -60.5005 0 0 60.9865zm121.487 0l61.189 0 0 -60.9865 -61.189 0 0 60.9865zm121.689 0l60.9865 0 0 -60.9865 -60.9865 0 0 60.9865zm-547.339 -121.487l60.5005 0 0 -60.9865 -60.5005 0 0 60.9865zm121.487 0l60.6625 0 0 -60.9865 -60.6625 0 0 60.9865zm121.689 0l60.9865 0 0 -60.9865 -60.9865 0 0 60.9865zm121.487 0l60.9865 0 0 -60.9865 -60.9865 0 0 60.9865zm122.175 0l60.5005 0 0 -60.9865 -60.5005 0 0 60.9865zm121.487 0l60.5005 0 0 -60.9865 -60.5005 0 0 60.9865zm-669.312 -122.013l60.9865 0 0 -60.6625 -60.9865 0 0 60.6625zm121.487 0l60.9865 0 0 -60.6625 -60.9865 0 0 60.6625zm121.649 0l61.027 0 0 -60.6625 -61.027 0 0 60.6625zm122.013 0l60.5005 0 0 -60.6625 -60.5005 0 0 60.6625zm121.487 0l61.189 0 0 -60.6625 -61.189 0 0 60.6625zm121.689 0l60.9865 0 0 -60.6625 -60.9865 0 0 60.6625zm-547.339 -121.649l60.5005 0 0 -61.027 -60.5005 0 0 61.027zm121.487 0l60.6625 0 0 -61.027 -60.6625 0 0 61.027zm121.689 0l60.9865 0 0 -61.027 -60.9865 0 0 61.027zm121.487 0l60.9865 0 0 -61.027 -60.9865 0 0 61.027zm122.175 0l60.5005 0 0 -61.027 -60.5005 0 0 61.027zm121.487 0l60.5005 0 0 -61.027 -60.5005 0 0 61.027zm-669.312 -121.527l60.9865 0 0 -61.1485 -60.9865 0 0 61.1485zm243.136 0l61.027 0 0 -61.1485 -61.027 0 0 61.1485zm122.013 0l60.5005 0 0 -61.1485 -60.5005 0 0 61.1485zm121.487 0l61.189 0 0 -61.1485 -61.189 0 0 61.1485zm121.689 0l60.9865 0 0 -61.1485 -60.9865 0 0 61.1485zm-486.839 0l60.9865 0 0 -61.1485 -60.9865 0 0 61.1485zm547.825 -121.649l60.5005 0 0 -60.9865 -60.5005 0 0 60.9865zm-121.487 0l60.5005 0 0 -60.9865 -60.5005 0 0 60.9865zm-122.175 0l60.9865 0 0 -60.9865 -60.9865 0 0 60.9865zm-121.487 0l60.9865 0 0 -60.9865 -60.9865 0 0 60.9865zm-121.689 0l60.6625 0 0 -60.9865 -60.6625 0 0 60.9865zm-121.487 0l60.5005 0 0 -60.9865 -60.5005 0 0 60.9865zm-60.9865 -122.013l60.9865 0 0 -60.6625 -60.9865 0 0 60.6625zm121.487 0l60.9865 0 0 -60.6625 -60.9865 0 0 60.6625zm121.649 0l61.027 0 0 -60.6625 -61.027 0 0 60.6625zm122.013 0l60.5005 0 0 -60.6625 -60.5005 0 0 60.6625zm121.487 0l61.189 0 0 -60.6625 -61.189 0 0 60.6625zm121.689 0l60.9865 0 0 -60.6625 -60.9865 0 0 60.6625zm60.9865 -121.649l60.5005 0 0 -60.9865 -60.5005 0 0 60.9865zm-121.487 0l60.5005 0 0 -60.9865 -60.5005 0 0 60.9865zm-122.175 0l60.9865 0 0 -60.9865 -60.9865 0 0 60.9865zm-121.487 0l60.9865 0 0 -60.9865 -60.9865 0 0 60.9865zm-121.689 0l60.6625 0 0 -60.9865 -60.6625 0 0 60.9865zm-121.487 0l60.5005 0 0 -60.9865 -60.5005 0 0 60.9865zm-60.9865 -121.487l60.9865 0 0 -61.189 -60.9865 0 0 61.189zm121.487 0l60.9865 0 0 -61.189 -60.9865 0 0 61.189zm121.649 0l61.027 0 0 -61.189 -61.027 0 0 61.189zm122.013 0l60.5005 0 0 -61.189 -60.5005 0 0 61.189zm121.487 0l61.189 0 0 -61.189 -61.189 0 0 61.189zm121.689 0l60.9865 0 0 -61.189 -60.9865 0 0 61.189z"></path>
      </glyph>
      <glyph id="glyph4335" unicode="δ">
        <path id="path4337" d="M85.0004 716.004l391.998 0 0 -72.0013 -273.994 0c32.4775,-33.166 83.5021,-73.8236 152.831,-121.851 61.8369,-42.8039 105.005,-82.4897 129.505,-119.138 24.4999,-36.8511 36.6486,-86.4987 36.6486,-149.186 0,-83.988 -22.6371,-149.146 -68.1542,-195.513 -45.5171,-46.1651 -104.843,-69.3286 -177.816,-69.3286 -79.8575,0 -140.034,25.9982 -180.368,77.8327 -40.4957,51.9964 -60.6625,113.671 -60.6625,185.187 0,82.9756 21.3412,146.513 64.0236,190.168 42.8039,43.6543 93.8285,66.4939 153.155,68.8426 -30.3313,21.1387 -86.0128,68.1542 -167.166,140.803l0 64.1856zm40.0097 -465.174c0,-55.1551 14.6594,-100.672 43.8163,-136.349 29.1569,-35.6362 66.4939,-53.4948 111.849,-53.4948 39.8072,0 74.998,15.1859 105.491,45.6791 30.4932,30.4932 45.8411,78.6831 45.8411,144.651 0,61.027 -14.4974,108.164 -43.4923,141.532 -29.1974,33.4899 -65.684,50.1336 -109.662,50.1336 -48.6758,0 -86.5392,-18.8305 -113.509,-56.4915 -26.8486,-37.499 -40.3337,-82.8136 -40.3337,-135.66z"></path>
      </glyph>
      <glyph id="glyph4339" unicode="p">
        <path id="path4341" d="M65.9868 -198.984l0 717.981 80.0031 0 0 -68.1523c18.859,26.3396 40.1591,46.1435 64.0183,59.333 23.6623,13.1501 52.4824,19.8039 86.342,19.8039 44.3325,0 83.3104,-11.2997 117.131,-34.1352 33.8596,-22.6781 59.333,-54.8447 76.6959,-96.1849 17.166,-41.4977 25.8278,-86.8144 25.8278,-136.344 0,-52.8367 -9.48856,-100.476 -28.5051,-142.998 -19.0165,-42.3245 -46.6554,-74.8061 -82.9954,-97.4842 -36.1825,-22.5206 -74.3336,-33.8202 -114.335,-33.8202 -29.3319,0 -55.6715,6.14197 -78.822,18.4653 -23.3474,12.3627 -42.3639,27.8357 -57.3645,46.6948l0 -253.16 -87.9956 0zm80.0031 455.333c0,-66.4987 13.5045,-115.674 40.3559,-147.525 26.9696,-31.8123 59.648,-47.8365 97.996,-47.8365 38.9779,0 72.3257,16.4967 100.004,49.5295 27.8357,32.9934 41.6552,83.9797 41.6552,153.156 0,65.9868 -13.5045,115.32 -40.6709,148.155 -27.1664,32.8359 -59.4905,49.1752 -97.1692,49.1752 -37.3243,0 -70.3177,-17.5204 -98.9803,-52.3249 -28.8594,-35.0014 -43.1907,-85.6727 -43.1907,-152.329z"></path>
      </glyph>
      <glyph id="glyph4343" unicode="N">
        <path id="path4345" d="M76.0045 0l0 716.002 97.3354 0 375.664 -562.008 0 562.008 90.9928 0 0 -716.002 -97.3354 0 -375.664 562.008 0 -562.008 -90.9928 0z"></path>
      </glyph>
      <glyph id="glyph4347" unicode="m">
        <path id="path4349" d="M66.0123 0l0 518.992 78.9809 0 0 -73.3116c16.1576,25.3348 37.8428,45.8153 64.843,61.158 27.0002,15.4844 57.6501,23.1734 92.1621,23.1734 38.3389,0 69.8391,-8.00794 94.3236,-23.8466 24.5199,-16.0159 41.8468,-38.1617 51.839,-66.8273 41.3507,60.4847 94.8551,90.6739 160.832,90.6739 51.6618,0 91.5243,-14.1733 119.162,-42.6618 27.8506,-28.5238 41.8468,-72.3549 41.8468,-131.529l0 -355.822 -88.0164 0 0 326.66c0,35.0081 -2.9764,60.343 -8.64574,75.8274 -5.66934,15.5198 -16.0159,27.8506 -31.1813,37.3468 -14.9883,9.49614 -32.6695,14.1733 -52.8311,14.1733 -36.6735,0 -67.0045,-12.1891 -91.17,-36.3546 -24.1655,-24.3073 -36.142,-63.1422 -36.142,-116.469l0 -301.183 -88.0164 0 0 336.829c0,39.0121 -7.15754,68.3509 -21.508,87.8393 -14.3151,19.4883 -37.8074,29.3388 -70.3352,29.3388 -24.6616,0 -47.4807,-6.51974 -68.4927,-19.5238 -21.012,-12.9686 -36.1775,-31.9963 -45.6736,-57.154 -9.31897,-24.9805 -13.9962,-61.158 -13.9962,-108.32l0 -269.01 -87.981 0z"></path>
      </glyph>
      <glyph id="glyph4351" unicode="Y">
        <path id="path4353" d="M278.825 0l0 303.345 -275.99 412.657 113.989 0 141.521 -216.675c26.327,-40.146 50.8114,-80.3274 73.1699,-120.509 21.8269,37.5239 48.3311,79.5124 79.1581,126.178l138.651 211.006 110.517 0 -286.018 -412.657 0 -303.345 -94.9968 0z"></path>
      </glyph>
      <glyph id="glyph4355" unicode="H">
        <path id="path4357" d="M81.0006 0l0 716.002 94.9968 0 0 -295.018 369.995 0 0 295.018 94.9968 0 0 -716.002 -94.9968 0 0 337.007 -369.995 0 0 -337.007 -94.9968 0z"></path>
      </glyph>
      <glyph id="glyph4359" unicode="4">
        <path id="path4361" d="M323.002 0l0 171.007 -311.002 0 0 80.9963 327.009 464 71.982 0 0 -464 97.0028 0 0 -80.9963 -97.0028 0 0 -171.007 -87.9885 0zm0 252.003l0 322.171 -224.507 -322.171 224.507 0z"></path>
      </glyph>
      <glyph id="glyph4363" unicode="E">
        <path id="path4365" d="M79.0164 0l0 716.002 516.973 0 0 -84.0125 -421.976 0 0 -220.006 394.976 0 0 -83.977 -394.976 0 0 -243.994 438.984 0 0 -84.0125 -533.981 0z"></path>
      </glyph>
      <glyph id="glyph4367" unicode="V">
        <path id="path4369" d="M280.986 0l-276.664 716.002 102.686 0 185.99 -520.339c14.8466,-41.6696 27.4963,-80.6463 37.4885,-117.178 11.0198,39.1893 23.8466,78.166 38.5161,117.178l193.005 520.339 96.6622 0 -279.179 -716.002 -98.5047 0z"></path>
      </glyph>
      <glyph id="glyph4371" unicode="1">
        <path id="path4373" d="M371.993 0l-87.9971 0 0 560.339c-21.1792,-20.3288 -48.9998,-40.4957 -83.3401,-60.6625 -34.3403,-20.1668 -65.3195,-35.3527 -92.6541,-45.3551l0 85.0004c49.1617,23.0015 92.1681,51.0245 128.979,84.0285 36.8511,32.8015 63.0113,64.6311 78.3591,95.6508l56.6534 0 0 -719.001z"></path>
      </glyph>
      <glyph id="glyph4375" unicode="u">
        <path id="path4377" d="M405.006 0l0 77.168c-40.3393,-58.8299 -95.0045,-88.1577 -164.17,-88.1577 -30.5052,0 -59.0044,5.82194 -85.4975,17.4876 -26.5149,11.8401 -46.183,26.4931 -59.0044,44.177 -12.8432,17.8147 -21.8268,39.4889 -26.9946,65.1534 -3.51061,17.335 -5.34223,44.6785 -5.34223,82.0087l0 321.166 88.0051 0 0 -287.172c0,-45.8342 1.83162,-76.8409 5.32042,-92.6713 5.51667,-23.1569 17.1824,-41.1679 35.1715,-54.3163 17.8365,-13.1702 39.8378,-19.8426 66.1782,-19.8426 26.3187,0 51.0019,6.67234 73.9844,20.1696 23.0043,13.4973 39.3363,31.988 49.0177,55.1667 9.48518,23.1569 14.3259,56.9983 14.3259,101.153l0 277.512 88.0051 0 0 -519.003 -78.9996 0z"></path>
      </glyph>
      <glyph id="glyph4379" unicode="B">
        <path id="path4381" d="M72.9927 0l0 716.002 268.691 0c54.6382,0 98.4693,-7.15754 131.635,-21.6852 33.0239,-14.4922 58.8548,-36.8153 77.5282,-66.969 18.8151,-30.012 28.1695,-61.5123 28.1695,-94.5007 0,-30.5081 -8.36227,-59.3509 -24.8388,-86.3511 -16.5119,-27.0002 -41.5279,-48.8272 -75.0124,-65.4808 43.335,-12.6851 76.6778,-34.3349 99.8512,-65.0202 23.3151,-30.5081 34.9727,-66.6501 34.9727,-108.32 0,-33.6617 -7.15754,-64.843 -21.3309,-93.6858 -14.1733,-28.8073 -31.642,-50.9886 -52.4768,-66.6501 -20.8348,-15.5198 -47.0201,-27.3545 -78.3431,-35.327 -31.5002,-8.00794 -70.0163,-12.0119 -115.654,-12.0119l-273.191 0zm94.9968 414.995l154.844 0c41.9885,0 72.1777,2.83467 90.3196,8.32684 24.1655,7.19297 42.3429,19.1694 54.4965,35.8586 12.1891,16.6537 18.3545,37.4885 18.3545,62.6462 0,23.8466 -5.66934,44.8232 -17.1852,62.8233 -11.3032,18.1773 -27.638,30.6853 -48.8272,37.3468 -21.1537,6.66147 -57.5083,9.9922 -108.816,9.9922l-143.186 0 0 -216.994zm0 -330.983l178.336 0c30.6853,0 52.1579,1.1693 64.6659,3.47247 21.6852,3.86224 40.0043,10.3465 54.6737,19.5238 14.6694,9.1418 26.6813,22.5002 36.1775,40.0043 9.49614,17.5041 14.1733,37.6657 14.1733,60.4847 0,26.823 -6.83864,49.9965 -20.6931,69.8391 -13.6418,19.8427 -32.6695,33.6617 -56.9768,41.6696 -24.1655,8.00794 -59.1737,11.9765 -104.67,11.9765l-165.686 0 0 -246.97z"></path>
      </glyph>
      <glyph id="glyph4383" unicode="S">
        <path id="path4385" d="M45.9925 229.998l89.0086 8.00794c4.18114,-36.0003 13.9962,-65.5163 29.516,-88.6897 15.4844,-22.9962 39.4728,-41.6342 72.0006,-55.9847 32.4924,-14.1733 69.1659,-21.3309 109.808,-21.3309 36.1775,0 67.9966,5.35044 95.67,16.1576 27.6734,10.8426 48.1539,25.6892 61.654,44.5043 13.5001,18.8505 20.3387,39.331 20.3387,61.3351 0,22.323 -6.4843,41.8468 -19.4883,58.6776 -13.004,16.6537 -34.5121,30.6498 -64.4887,42.1657 -19.1694,7.3347 -61.6895,18.9923 -127.525,34.831 -65.8352,15.8387 -111.828,30.6498 -138.155,44.646 -34.1577,18.0001 -59.4926,40.3586 -76.1817,66.8627 -16.8308,26.4687 -25.1577,56.3036 -25.1577,89.1503 0,36.3192 10.3465,70.158 30.827,101.517 20.5159,31.5002 50.3508,55.3115 89.859,71.6462 39.331,16.3348 83.1621,24.5199 131.316,24.5199 53.0083,0 99.8512,-8.504 140.351,-25.6892 40.5003,-17.008 71.6462,-42.1657 93.4732,-75.5085 21.8624,-33.1656 33.5199,-70.8313 35.1853,-112.82l-90.9928 -6.98037c-4.85437,45.1421 -21.3309,79.2998 -49.5004,102.332 -28.1695,23.138 -69.8391,34.6538 -124.832,34.6538 -57.3312,0 -99.1779,-10.4883 -125.363,-31.5002 -26.1498,-21.012 -39.331,-46.3468 -39.331,-76.0045 0,-25.6537 9.3544,-46.8429 27.8506,-63.4966 18.319,-16.5119 65.8352,-33.6617 142.832,-50.9886 76.9967,-17.5041 129.828,-32.6695 158.493,-45.6736 41.4925,-19.1694 72.3549,-43.335 92.1621,-72.851 19.8427,-29.3034 29.6931,-63.1422 29.6931,-101.481 0,-38.1617 -10.8426,-73.8431 -32.6695,-107.505 -21.8624,-33.6617 -53.0083,-59.8469 -93.8629,-78.4849 -40.8192,-18.6734 -86.6345,-28.0278 -137.8,-28.0278 -64.7013,0 -118.843,9.49614 -162.533,28.3467 -43.8311,18.8151 -77.9888,47.1618 -102.828,85.1818 -24.9805,37.8074 -37.9846,80.6463 -39.331,128.481z"></path>
      </glyph>
      <glyph id="glyph4387" unicode=" "></glyph>
      <glyph id="glyph4389" unicode="r">
        <path id="path4391" d="M65.0008 0l0 519.003 78.9996 0 0 -79.5011c20.1696,36.8287 38.8347,61.1631 55.9953,72.8288 17.1606,11.8401 36.0001,17.6621 56.4968,17.6621 29.6766,0 59.833,-9.33255 90.5126,-27.8232l-31.3338 -81.1801c-21.3471,12.0146 -42.6724,18.0109 -63.9977,18.0109 -19.1666,0 -36.349,-5.84375 -51.5035,-17.335 -15.1763,-11.4912 -26.0134,-27.4961 -32.5113,-47.9928 -9.83406,-31.1812 -14.653,-65.3496 -14.653,-102.505l0 -271.167 -88.0051 0z"></path>
      </glyph>
      <glyph id="glyph4393" unicode="░">
        <path id="path4395" d="M49.8445 910.154l60.9867 0 0 -60.9867 -60.9867 0 0 60.9867zm243.159 0l60.9867 0 0 -60.9867 -60.9867 0 0 60.9867zm243.671 0l60.9867 0 0 -60.9867 -60.9867 0 0 60.9867zm-365.329 -121.658l61.1441 0 0 -60.9867 -61.1441 0 0 60.9867zm243.671 0l60.6323 0 0 -60.9867 -60.6323 0 0 60.9867zm243.159 0l60.9867 0 0 -60.9867 -60.9867 0 0 60.9867zm-121.501 -121.501l60.9867 0 0 -60.9867 -60.9867 0 0 60.9867zm-243.671 0l60.9867 0 0 -60.9867 -60.9867 0 0 60.9867zm-243.159 0l60.9867 0 0 -60.9867 -60.9867 0 0 60.9867zm608.331 -122.013l60.9867 0 0 -60.6323 -60.9867 0 0 60.6323zm-243.159 0l60.6323 0 0 -60.6323 -60.6323 0 0 60.6323zm-243.671 0l61.1441 0 0 -60.6323 -61.1441 0 0 60.6323zm-121.501 -121.658l60.9867 0 0 -60.9867 -60.9867 0 0 60.9867zm243.159 0l60.9867 0 0 -60.9867 -60.9867 0 0 60.9867zm243.671 0l60.9867 0 0 -60.9867 -60.9867 0 0 60.9867zm121.501 -121.501l60.9867 0 0 -61.1441 -60.9867 0 0 61.1441zm-243.159 0l60.6323 0 0 -61.1441 -60.6323 0 0 61.1441zm-243.671 0l61.1441 0 0 -61.1441 -61.1441 0 0 61.1441zm-121.501 -121.658l60.9867 0 0 -60.9867 -60.9867 0 0 60.9867zm243.159 0l60.9867 0 0 -60.9867 -60.9867 0 0 60.9867zm243.671 0l60.9867 0 0 -60.9867 -60.9867 0 0 60.9867zm-365.329 -122.013l61.1441 0 0 -60.6323 -61.1441 0 0 60.6323zm243.671 0l60.6323 0 0 -60.6323 -60.6323 0 0 60.6323zm243.159 0l60.9867 0 0 -60.6323 -60.9867 0 0 60.6323zm-121.501 -121.658l60.9867 0 0 -60.9867 -60.9867 0 0 60.9867zm-243.671 0l60.9867 0 0 -60.9867 -60.9867 0 0 60.9867zm-243.159 0l60.9867 0 0 -60.9867 -60.9867 0 0 60.9867zm121.501 -121.501l61.1441 0 0 -61.1441 -61.1441 0 0 61.1441zm243.671 0l60.6323 0 0 -61.1441 -60.6323 0 0 61.1441zm243.159 0l60.9867 0 0 -61.1441 -60.9867 0 0 61.1441z"></path>
      </glyph>
      <glyph id="glyph4397" unicode="a">
        <path id="path4399" d="M405.003 64.9848c-32.6695,-27.8152 -64.1698,-47.3035 -94.3236,-58.8194 -30.1892,-11.5158 -62.5044,-17.1497 -97.1937,-17.1497 -56.9768,0 -100.808,13.819 -131.493,41.6342 -30.6498,27.6734 -45.9925,63.1777 -45.9925,106.335 0,25.3348 5.8465,48.5083 17.3269,69.5202 11.6576,21.012 26.823,37.6657 45.4964,50.3154 18.8505,12.6851 39.8271,22.3584 63.3548,28.8427 17.3269,4.50004 43.4767,8.8229 78.3077,13.1812 71.0084,8.32684 123.521,18.4962 157.005,30.1538 0.354333,12.0119 0.496067,19.6655 0.496067,22.8191 0,35.6814 -8.32684,60.8391 -24.9805,75.5085 -22.5002,19.8427 -56.0201,29.6577 -100.347,29.6577 -41.4925,0 -72.1423,-7.3347 -91.8432,-21.8269 -19.8072,-14.4922 -34.2995,-40.146 -43.8311,-77.1738l-85.9967 12.0119c7.83077,36.8507 20.6931,66.6856 38.6932,89.3275 18.0001,22.6773 43.9728,40.0043 77.9888,52.3351 33.8388,12.1891 73.347,18.3545 117.993,18.3545 44.3271,0 80.5046,-5.17327 108.32,-15.6615 27.6734,-10.5237 48.1894,-23.5277 61.1934,-39.3665 13.004,-15.8033 22.1458,-35.8231 27.4963,-59.9887 2.83467,-14.9883 4.32287,-41.9885 4.32287,-80.8235l0 -116.682c0,-81.4967 1.84253,-132.981 5.49217,-154.808 3.5079,-21.8624 10.8426,-42.6972 21.508,-62.6816l-91.985 0c-8.85834,18.4962 -14.5277,40.1814 -17.008,64.9848zm-7.0158 195.025c-31.9963,-13.004 -79.9731,-24.0238 -144.001,-33.0239 -36.3192,-5.13784 -61.9729,-10.9843 -76.9967,-17.4686 -14.9883,-6.51974 -26.5041,-16.0159 -34.6538,-28.3467 -8.1851,-12.508 -12.3308,-26.327 -12.3308,-41.6696 0,-23.1734 8.8229,-42.6618 26.6459,-58.1816 17.8584,-15.4844 43.8665,-23.3151 78.0242,-23.3151 33.8388,0 63.9926,7.3347 90.4968,22.1458 26.327,14.6694 45.8153,34.8664 58.1461,60.343 9.53157,19.8427 14.1733,49.0043 14.1733,87.5204l0.496067 31.9963z"></path>
      </glyph>
      <glyph id="glyph4401" unicode="P">
        <path id="path4403" d="M76.9967 0l0 716.002 270.321 0c47.5161,0 83.8353,-2.3386 109.028,-6.83864 35.1499,-5.8465 64.6659,-17.008 88.4771,-33.3428 23.8466,-16.4765 43.0161,-39.4728 57.5083,-68.9887 14.4922,-29.4805 21.6852,-62.0084 21.6852,-97.5126 0,-60.6619 -19.3466,-112.147 -58.1816,-154.135 -38.6578,-42.2011 -108.851,-63.1777 -210.155,-63.1777l-183.686 0 0 -292.006 -94.9968 0zm94.9968 375.983l184.998 0c61.3351,0 104.67,11.3387 130.501,34.1932 25.6892,22.8191 38.5161,54.8154 38.5161,96.3078 0,29.8349 -7.51187,55.5241 -22.6773,76.8549 -15.1655,21.3309 -35.1499,35.5042 -59.8469,42.3429 -15.9804,4.1457 -45.4964,6.30714 -88.2999,6.30714l-183.19 0 0 -256.006z"></path>
      </glyph>
      <glyph id="glyph4405" unicode="τ">
        <path id="path4407" d="M246.983 448.004l0 -448.004 -87.9971 0 0 448.004 -136.997 0 0 70.9889 350.004 0 0 -70.9889 -125.01 0z"></path>
      </glyph>
      <glyph id="glyph4409" unicode="M">
        <path id="path4411" d="M75.0093 0l0 715.99 141.994 0 169.338 -506.814c15.656,-47.1861 26.9946,-82.5102 34.1685,-106.016 8.15508,26.0134 20.9982,64.3466 38.3332,114.847l172.325 497.983 126.84 0 0 -715.99 -91.0142 0 0 599.006 -209.001 -599.006 -85.323 0 -206.668 609.995 0 -609.995 -90.9923 0z"></path>
      </glyph>
      <glyph id="glyph4413" unicode="o">
        <path id="path4415" d="M32.991 259.502c0,95.8331 26.6675,166.83 80.1771,212.991 44.504,38.3332 98.9948,57.4998 163.167,57.4998 71.1716,0 129.5,-23.3314 174.833,-69.9941 45.1582,-46.4883 67.8354,-111.009 67.8354,-193.171 0,-66.6579 -10.0085,-118.99 -30.0037,-157.171 -19.9952,-38.1588 -49.1703,-67.8136 -87.5035,-88.9863 -38.1588,-21.1727 -80.0026,-31.6609 -125.161,-31.6609 -72.6761,0 -131.332,23.1569 -176.163,69.667 -44.8311,46.4883 -67.1813,113.495 -67.1813,200.824zm90.0111 -0.17444c0,-66.3309 14.5003,-116.003 43.501,-148.819 29.1533,-33.0128 65.6549,-49.4974 109.832,-49.4974 43.6755,0 80.0026,16.4846 109.156,49.65 29.0007,33.1654 43.501,83.6659 43.501,151.501 0,63.9977 -14.653,112.514 -43.8281,145.33 -29.1533,33.0128 -65.5023,49.4974 -108.829,49.4974 -44.177,0 -80.6786,-16.332 -109.832,-49.1485 -29.0007,-32.8384 -43.501,-82.3358 -43.501,-148.514z"></path>
      </glyph>
      <glyph id="glyph4417" unicode="i">
        <path id="path4419" d="M66.0123 616.009l0 99.9929 87.981 0 0 -99.9929 -87.981 0zm0 -616.009l0 518.992 87.981 0 0 -518.992 -87.981 0z"></path>
      </glyph>
      <glyph id="glyph4421" unicode="G">
        <path id="path4423" d="M411.984 280.986l0 84.0125 303.026 0 0 -265.325c-46.524,-36.9924 -94.5007,-65.0202 -144.001,-83.6581 -49.5004,-18.6734 -100.347,-28.0278 -152.328,-28.0278 -70.3352,0 -134.186,15.0237 -191.694,45.1775 -57.3312,30.012 -100.808,73.6659 -129.97,130.501 -29.3388,57.0123 -44.0082,120.651 -44.0082,190.844 0,69.662 14.4922,134.647 43.6539,195.167 29.1616,60.3076 71.0084,105.166 125.682,134.328 54.6382,29.3388 117.639,44.0082 189.001,44.0082 51.6618,0 98.5047,-8.36227 140.316,-25.1931 41.8468,-16.8308 74.6581,-40.146 98.3275,-69.9809 23.8466,-30.012 41.8468,-69.1659 54.1776,-117.355l-85.5007 -23.3151c-10.8426,36.3192 -24.1655,64.9848 -40.0043,85.9967 -15.9804,20.8348 -38.6578,37.4885 -68.3155,49.9965 -29.516,12.508 -62.3627,18.8505 -98.5047,18.8505 -43.1578,0 -80.5046,-6.6969 -112.182,-19.8427 -31.5002,-13.1812 -56.8351,-30.5081 -76.3234,-52.1579 -19.3466,-21.508 -34.3349,-45.1775 -45.0004,-70.8313 -18.1773,-44.5043 -27.3191,-92.5165 -27.3191,-144.355 0,-63.9926 10.9843,-117.497 32.8113,-160.655 22.0041,-43.0161 54.0004,-75.0124 95.8472,-95.8472 41.9885,-20.8348 86.4928,-31.3231 133.655,-31.3231 40.9964,0 81.0006,8.00794 120.013,23.8466 38.9767,15.9804 68.4927,32.8113 88.6542,50.9886l0 134.151 -210.013 0z"></path>
      </glyph>
      <glyph id="glyph4425" unicode="ñ">
        <path id="path4427" d="M66.0079 0l0 518.992 79.007 0 0 -73.6616c37.9849,56.4915 92.9781,84.6764 164.817,84.6764 31.3436,0 60.0146,-5.66939 86.1748,-16.8462 26.1602,-11.1768 45.8411,-25.9982 58.8402,-44.1808 12.9991,-18.1421 22.1511,-39.8072 27.3346,-64.8336 3.15866,-16.3198 4.81898,-44.8287 4.81898,-85.4864l0 -318.66 -87.9971 0 0 315.34c0,35.8387 -3.32064,62.6468 -10.1644,80.3434 -6.84377,17.6561 -18.9925,31.8296 -36.3246,42.48 -17.3321,10.4884 -37.8634,15.8338 -61.189,15.8338 -37.337,0 -69.4906,-11.8247 -96.6632,-35.6767 -27.1726,-23.6495 -40.6576,-68.8021 -40.6576,-135.134l0 -283.186 -87.9971 0zm60.9865 582.004c-0.323965,33.4899 8.99004,60.1766 27.8205,80.1814 18.5065,19.8024 42.3585,29.8048 71.3534,29.8048 20.1668,0 47.6634,-8.50409 82.3277,-25.6743 19.1545,-9.47599 34.5023,-14.3355 45.8411,-14.3355 10.4884,0 18.5065,2.8347 24.0139,8.50409 5.46692,5.50741 9.314,16.8462 11.6628,33.5304l62.9708 0c-0.971896,-37.013 -10.3264,-64.6716 -27.9825,-83.1781 -17.6561,-18.5065 -40.0097,-27.8205 -67.3443,-27.8205 -20.3288,0 -47.3394,9.15202 -80.6674,27.3346 -21.8272,11.8247 -37.823,17.6561 -47.9874,17.6561 -11.0148,0 -20.0049,-3.84709 -26.6866,-11.6628 -7.16773,-7.69418 -10.6504,-19.1949 -10.3264,-34.3403l-64.9955 0z"></path>
      </glyph>
    </font>
    <font font-weight="400" font-style="normal" font-variant="normal" id="FontID0" vert-origin-x="45" vert-origin-y="90" vert-adv-y="90" style="font-style:normal;font-variant:normal;font-weight:400">
      <glyph id="glyph4436" unicode="├">
        <path id="path4438" d="M610.828 346.168l-267.991 0 0 -563.998 -85.0036 0 0 1212 85.0036 0 0 -562.994 267.991 0 0 -85.0036z"></path>
      </glyph>
      <glyph id="glyph4440" unicode="╝">
        <path id="path4442" d="M257.834 431.172l-268.995 0 0 84.9918 183.991 0 0 478.002 85.0036 0 0 -562.994zm170.338 -170.007l-439.333 0 0 85.0036 353.999 0 0 647.997 85.3343 0 0 -733.001z"></path>
      </glyph>
      <glyph id="glyph4444" unicode="╚">
        <path id="path4446" d="M610.828 431.172l-267.991 0 0 562.994 85.3343 0 0 -478.002 182.657 0 0 -84.9918zm0 -170.007l-437.998 0 0 733.001 85.0036 0 0 -647.997 352.995 0 0 -85.0036z"></path>
      </glyph>
      <glyph id="glyph4448" unicode="┤">
        <path id="path4450" d="M342.837 -217.83l-85.0036 0 0 563.998 -268.995 0 0 85.0036 268.995 0 0 562.994 85.0036 0 0 -1212z"></path>
      </glyph>
      <glyph id="glyph4452" unicode="╗">
        <path id="path4454" d="M428.172 -217.83l-85.3343 0 0 649.001 -353.999 0 0 84.9918 439.333 0 0 -733.993zm-170.338 0l-85.0036 0 0 478.994 -183.991 0 0 85.0036 268.995 0 0 -563.998z"></path>
      </glyph>
      <glyph id="glyph4456" unicode="┐">
        <path id="path4458" d="M342.837 -217.83l-85.0036 0 0 563.998 -268.995 0 0 85.0036 353.999 0 0 -649.001z"></path>
      </glyph>
      <glyph id="glyph4460" unicode="╥">
        <path id="path4462" d="M610.828 346.168l-182.657 0 0 -563.998 -85.3343 0 0 563.998 -85.0036 0 0 -563.998 -85.0036 0 0 563.998 -183.991 0 0 85.0036 621.99 0 0 -85.0036z"></path>
      </glyph>
      <glyph id="glyph4464" unicode="▄">
        <path id="path4466" d="M-11.1614 -217.83l0 605.998 621.99 0 0 -605.998 -621.99 0z"></path>
      </glyph>
      <glyph id="glyph4468" unicode="║">
        <path id="path4470" d="M428.172 -217.83l-85.3343 0 0 1212 85.3343 0 0 -1212zm-170.338 0l-85.0036 0 0 1212 85.0036 0 0 -1212z"></path>
      </glyph>
      <glyph id="glyph4472" unicode="╟">
        <path id="path4474" d="M610.828 346.168l-182.657 0 0 -563.998 -85.3343 0 0 1212 85.3343 0 0 -562.994 182.657 0 0 -85.0036zm-352.995 -563.998l-85.0036 0 0 1212 85.0036 0 0 -1212z"></path>
      </glyph>
      <glyph id="glyph4476" unicode="┴">
        <path id="path4478" d="M610.828 346.168l-621.99 0 0 85.0036 268.995 0 0 562.994 85.0036 0 0 -562.994 267.991 0 0 -85.0036z"></path>
      </glyph>
      <glyph id="glyph4480" unicode="╓">
        <path id="path4482" d="M610.828 346.168l-182.657 0 0 -563.998 -85.3343 0 0 563.998 -85.0036 0 0 -563.998 -85.0036 0 0 649.001 437.998 0 0 -85.0036z"></path>
      </glyph>
      <glyph id="glyph4484" unicode="╡">
        <path id="path4486" d="M342.837 -217.83l-85.0036 0 0 478.994 -268.995 0 0 85.0036 268.995 0 0 85.0036 -268.995 0 0 84.9918 268.995 0 0 478.002 85.0036 0 0 -1212z"></path>
      </glyph>
      <glyph id="glyph4488" unicode="ⁿ">
        <path id="path4490" d="M292.995 357.837l-60.9919 0 0 172.995c0,40.6652 -16.0039,61.0037 -47.9998,61.0037 -48.673,0 -73.169,-26.5038 -73.169,-79.665l0 -154.334 -59.9998 0 0 281.326 55.1691 0 0 -38.9998 1.8307 0c21.496,30.5078 49.8305,45.8384 85.0036,45.8384 23.1613,0 43.1573,-4.66534 59.8344,-14.1732 16.8306,-9.49603 27.6613,-22.1574 32.6574,-37.9959 5.17321,-16.0039 7.66532,-37.3345 7.66532,-64.0037l0 -171.991z"></path>
      </glyph>
      <glyph id="glyph4492" unicode="╘">
        <path id="path4494" d="M610.828 261.164l-352.995 0 0 733.001 85.0036 0 0 -478.002 267.991 0 0 -84.9918 -267.991 0 0 -85.0036 267.991 0 0 -85.0036z"></path>
      </glyph>
    </font>
</defs>
</svg>
